Diary.of.a.Wimpy.Kid.The.Long.Haul.2017.720p.BluRay.x264-x0r

  • Category Movies
  • Type HD
  • Language English
  • Total size 1.9 GB
  • Uploaded By showstopper
  • Downloads 832
  • Last checked 5 days ago
  • Date uploaded 1 week ago
  • Seeders 38
  • Leechers 8

Diary of a Wimpy Kid: The Long Haul

ComedyFamily

A Heffley family road trip to attend Meemaw's 90th birthday party goes hilariously off course thanks to Greg's newest scheme to get to a video gaming convention.

Infohash : 69D91ADE9D6559527FAD8676837069B0333B00DF

Diary.of.a.Wimpy.Kid.The.Long.Haul.2017.720p.BluRay.x264-x0r

ImDb: http://www.imdb.com/title/tt6003368



Complete name : Diary.of.a.Wimpy.Kid.The.Long.Haul.2017.720p.BluRay.x264-x0r.mkv
Format : Matroska
Format version : Version 4 / Version 2
File size : 1.92 GiB
Duration : 1 h 31 min
Overall bit rate : 3 010 kb/s
Movie name : Diary.of.a.Wimpy.Kid.The.Long.Haul.2017.720p.BluRay.x264-x0r
Encoded date : UTC 2017-08-09 00:26:26
Writing application : mkvmerge v7.7.0 ('Six Voices') 64bit built on Mar 1 2015 01:50:05
Writing library : libebml v1.3.1 + libmatroska v1.4.2

Video
ID : 1
Format : AVC
Format/Info : Advanced Video Codec
Format profile : [email protected]
Format settings, CABAC : Yes
Format settings, ReFrames : 8 frames
Codec ID : V_MPEG4/ISO/AVC
Duration : 1 h 31 min
Bit rate : 2 560 kb/s
Width : 1 280 pixels
Height : 720 pixels
Display aspect ratio : 16:9
Frame rate mode : Constant
Frame rate : 23.976 (24000/1001) FPS
Color space : YUV
Chroma subsampling : 4:2:0
Bit depth : 8 bits
Scan type : Progressive
Bits/(Pixel*Frame) : 0.116
Stream size : 1.63 GiB (85%)
Writing library : x264 core 142 r2389 956c8d8
Encoding settings : cabac=1 / ref=8 / deblock=1:-2:-2 / analyse=0x3:0x133 / me=umh / subme=9 / psy=1 / psy_rd=1.00:0.25 / mixed_ref=0 / me_range=32 / chroma_me=1 / trellis=2 / 8x8dct=1 / cqm=0 / deadzone=6,6 / fast_pskip=0 / chroma_qp_offset=-4 / threads=12 / lookahead_threads=1 / sliced_threads=0 / nr=0 / decimate=0 / interlaced=0 / bluray_compat=0 / constrained_intra=0 / bframes=4 / b_pyramid=2 / b_adapt=2 / b_bias=0 / direct=3 / weightb=1 / open_gop=0 / weightp=2 / keyint=240 / keyint_min=24 / scenecut=40 / intra_refresh=0 / rc_lookahead=80 / rc=2pass / mbtree=1 / bitrate=2560 / ratetol=1.0 / qcomp=0.00 / qpmin=0 / qpmax=69 / qpstep=4 / cplxblur=20.0 / qblur=0.5 / vbv_maxrate=20000 / vbv_bufsize=25000 / nal_hrd=none / filler=0 / ip_ratio=1.10 / aq=1:1.00
Language : English
Default : Yes
Forced : No
Color range : Limited
Color primaries : BT.709
Transfer characteristics : BT.709
Matrix coefficients : BT.709

Audio
ID : 2
Format : AC-3
Format/Info : Audio Coding 3
Format settings, Endianness : Big
Codec ID : A_AC3
Duration : 1 h 31 min
Bit rate mode : Constant
Bit rate : 448 kb/s
Channel(s) : 6 channels
Channel positions : Front: L C R, Side: L R, LFE
Sampling rate : 48.0 kHz
Frame rate : 31.250 FPS (1536 spf)
Bit depth : 16 bits
Compression mode : Lossy
Delay relative to video : -5 ms
Stream size : 293 MiB (15%)
Title : Surround
Language : English
Service kind : Complete Main
Default : Yes
Forced : No

Text
ID : 3
Format : UTF-8
Codec ID : S_TEXT/UTF8
Codec ID/Info : UTF-8 Plain Text
Duration : 1 h 26 min
Bit rate : 74 b/s
Count of elements : 1450
Stream size : 47.0 KiB (0%)
Language : English
Default : Yes
Forced : No

Menu
00:00:00.000 : :00:00:00.000
00:05:27.118 : :00:05:27.118
00:09:28.651 : :00:09:28.651
00:12:02.931 : :00:12:02.931
00:15:17.125 : :00:15:17.125
00:19:29.210 : :00:19:29.210
00:24:48.904 : :00:24:48.904
00:29:24.346 : :00:29:24.346
00:31:39.606 : :00:31:39.606
00:34:50.672 : :00:34:50.672
00:39:47.927 : :00:39:47.927
00:42:06.315 : :00:42:06.315
00:44:52.356 : :00:44:52.356
00:48:40.626 : :00:48:40.626
00:52:07.374 : :00:52:07.374
00:55:33.080 : :00:55:33.080
00:58:14.199 : :00:58:14.199
01:01:03.785 : :01:01:03.785
01:04:15.602 : :01:04:15.602
01:10:31.227 : :01:10:31.227
01:14:59.662 : :01:14:59.662
01:17:58.048 : :01:17:58.048
01:21:33.430 : :01:21:33.430
01:23:46.188 : :01:23:46.188






Click To View Screenshot

Click To View Screenshot

Click To View Screenshot

Files:

Diary.of.a.Wimpy.Kid.The.Long.Haul.2017.720p.BluRay.x264-x0r
  • Diary.of.a.Wimpy.Kid.The.Long.Haul.2017.720p.BluRay.x264-x0r.fanart.jpg (162.8 KB)
  • Diary.of.a.Wimpy.Kid.The.Long.Haul.2017.720p.BluRay.x264-x0r.jpg (310.8 KB)
  • Diary.of.a.Wimpy.Kid.The.Long.Haul.2017.720p.BluRay.x264-x0r.mkv (1.9 GB)
  • Diary.of.a.Wimpy.Kid.The.Long.Haul.2017.720p.BluRay.x264-x0r.nfo (0.1 KB)

There are currently no comments. Feel free to leave one :)

Code:

  • udp://tracker.coppersurfer.tk:6969/announce
  • udp://tracker.pirateparty.gr:6969/announce
  • udp://shadowshq.yi.org:6969/announce
  • udp://eddie4.nl:6969/announce
  • udp://tracker.leechers-paradise.org:6969/announce
  • udp://tracker.opentrackr.org:1337/announce
  • udp://p4p.arenabg.ch:1337/announce
  • udp://p4p.arenabg.com:1337/announce
  • udp://9.rarbg.me:2710/announce
  • udp://9.rarbg.to:2710/announce
  • udp://ipv4.tracker.harry.lu:80/announce
  • udp://tracker.grepler.com:6969/announce
  • udp://public.popcorn-tracker.org:6969/announce
  • udp://tracker.opentrackr.org:1337/announce
  • udp://tracker.zer0day.to:1337/announce